Jump to content
Sign in to follow this  
username

HD R.I.P.D. (2013)

Recommended Posts

CARkeyODDLY    4,437
CARkeyODDLY
Goone    792
Goone

1080p BRRip HC x264 AC3 5.1 | MP4

 

http://hugefiles.net/7oxvv0mroxiu

http://movreel.com/ljgsf9yhv2b4

 

 

NFO

 

 

 

 

General
Format : MPEG-4
Format profile : Base Media
Codec ID : isom
File size : 1.76 GiB
Duration : 1h 35mn
Overall bit rate : 2 622 Kbps
Encoded date : UTC 2013-10-17 15:23:30


Video
Format : AVC
Format profile : [email protected]
Format settings, CABAC : Yes
Format settings, ReFrames : 4 frames
Bit rate : 2 300 Kbps
Maximum bit rate : 12.1 Mbps
Width : 1 920 pixels
Height : 816 pixels
Display aspect ratio : 2.35:1
Frame rate mode : Constant
Frame rate : 23.976 fps
Color space : YUV
Chroma subsampling : 4:2:0
Bit depth : 8 bits
Scan type : Progressive
Bits/(Pixel*Frame) : 0.061
Stream size : 1.54 GiB (88%)


Audio
Format : AC-3
Bit rate mode : Constant
Bit rate : 320 Kbps
Channel(s) : 6 channels
Channel positions : Front: L C R, Side: L R, LFE
Sampling rate : 48.0 KHz
Bit depth : 16 bits
Compression mode : Lossy
Delay relative to video : 50ms
Stream size : 220 MiB (12%)
Language : English

 

Share this post


Link to post
Share on other sites

Create an account or sign in to comment

You need to be a member in order to leave a comment

Create an account

Sign up for a new account in our community. It's easy!

Register a new account

Sign in

Already have an account? Sign in here.

Sign In Now
Sign in to follow this  

×